Скачать через торрент Вирусность Viraali Фильм бесплатно в хорошем качестве torrent

Скачивайте на UnionPeer.org фильмы через торрент без регистрации. Новинки кино в хорошем качестве через торрент. На UnionPeer.org можно скачать через торрент фильмы 2014 и 2015 годов. Самые новые фильмы.

Скачать торрент Вирусность Viraali бесплатно через .torrent фильм мультфильм сериал

Статистика раздачи
Размер:  1.47 GB   |    Зарегистрирован:  6 дней   |    .torrent скачан:  74 раза   |   
Раздают:  1  
   
загрузка...
 
Автор Сообщение

Galfimbul

avatar Galfimbul


Вирусность / Viraali / Virality

Страна: Финляндия
Жанр: криминал, драма
Год выпуска: 2017
Продолжительность: 01:50:35

Перевод: субтитры - porcellus
Субтитры: русские
Оригинальная аудиодорожка: финская

Режиссер: Томас Лейн / Thomas Laine

В ролях: Франс Исотало, Вили Кортениеми, Мика Мелендер, Сага Саркола, Виса Сарпаранта, Анне Полви

Описание: Финны решили хайпануть и снять фильм на горячую тему 2017 года - майнинг криптовалют. В фильме ведется параллельный рассказ о нескольких персонажах - полицейском-интеллектуале Кари и его взаимоотношениях с виолончелисткой Сааной, юном рэпере и любителе пострелять в тире Янне, о пожилом банкире Харри, опечаленном смертельной болезнью бывшей жены, продавце в салоне сотовой связи Мике, недовольном своим социальным статусом и ухватившимся за возможность поменять свою жизнь. Все они оказываются в одно время и в одном месте - небольшом банковском офисе, в серверной которого майнятся биткоины.



Сэмпл: http://multi-up.com/1198335

Качество видео: HDRip
Формат видео: AVI

Видео: 720x416 (1.73:1), 25 fps, XviD build 50 ~1693 kbps avg, 0.23 bit/pixel
Аудио: 48 kHz, AC3 Dolby Digital, 2 ch, ~192.00 kbps avg
Формат субтитров: softsub (SRT)
GeneralComplete name : H:\temp\viraali\viraali.aviFormat : AVIFormat/Info : Audio Video InterleaveFile size : 1.47 GiBDuration : 1 h 50 minOverall bit rate : 1 897 kb/s

VideoID : 0Format : MPEG-4 VisualFormat profile : Advanced [email protected] settings, BVOP : 1Format settings, QPel : NoFormat settings, GMC : No warppointsFormat settings, Matrix : Default (MPEG)Codec ID : XVIDCodec ID/Hint : XviDDuration : 1 h 50 minBit rate : 1 694 kb/sWidth : 720 pixelsHeight : 416 pixelsDisplay aspect ratio : 1.731Frame rate : 25.000 FPSColor space : YUVChroma subsampling : 4:2:0Bit depth : 8 bitsScan type : ProgressiveCompression mode : LossyBits/(Pixel*Frame) : 0.226Stream size : 1.31 GiB (89%)Writing library : XviD 1.2.1 (UTC 2008-12-04)

AudioID : 1Format : AC-3Format/Info : Audio Coding 3Mode extension : CM (complete main)Format settings, Endianness : BigCodec ID : 2000Duration : 1 h 50 minBit rate mode : ConstantBit rate : 192 kb/sChannel(s) : 2 channelsChannel positions : Front: L RSampling rate : 48.0 kHzFrame rate : 31.250 FPS (1536 spf)Bit depth : 16 bitsCompression mode : LossyStream size : 152 MiB (10%)Alignment : Aligned on interleavesInterleave, duration : 32 ms (0.80 video frame)
7
00:01:26,291 --> 00:01:30,330
<i>До полицейской академии я два года изучал теоретическую физику. </i>

8
00:01:33,611 --> 00:01:36,091
<i>Можно подумать, что такая внезапная смена деятельности</i>

9
00:01:36,091 --> 00:01:38,811
<i>является следствием умственного переутомления, </i>

10
00:01:38,811 --> 00:01:44,488
<i>но думаю, что пытливый ум не оставит заинтересовавший его предмет до тех пор, </i>

11
00:01:44,771 --> 00:01:46,568
<i>пока не найдет ответы на все вопросы. </i>

12
00:02:01,171 --> 00:02:03,891
<i>Возможно, я считал, что, работая в полиции, </i>

13
00:02:03,891 --> 00:02:06,200
<i>я обретал бóльшую связь с реальностью. </i>

14
00:02:06,331 --> 00:02:08,291
<i>Чтобы по-настоящему ощущать</i>

15
00:02:08,291 --> 00:02:10,247
<i>и наблюдать реальную жизнь. </i>

16
00:02:11,611 --> 00:02:15,365
<i>Я никогда не задумывался, что однажды мне
придется убить кого-то, выполняя служебный долг. </i>

17
00:02:17,731 --> 00:02:19,084
Слышала? Выстрел.

18
00:02:30,331 --> 00:02:31,764
Полиция! Бросай оружие!

19
00:02:34,131 --> 00:02:38,571
Выстрелы, Исо Рообертинкату 21,
подозреваемый вооружен и убегает.

20
00:02:38,571 --> 00:02:42,086
Требуем немедленного подкрепления,
и патруль для преследования.

21
00:02:59,851 --> 00:03:01,079
Не закрывайте!

22
00:03:05,811 --> 00:03:07,483
Полиция! Всем в укрытие!

23
00:03:53,251 --> 00:03:58,086
Анни, обойди эту балюстраду,
я отвлеку его холостыми.

24
00:04:18,291 --> 00:04:20,282
Бросай оружие, ты окружен!

25
00:04:24,171 --> 00:04:25,763
Бросай оружие, стрелять буду!

26
00:04:28,131 --> 00:04:29,120
Волкѝ позорные!

27
00:04:29,891 --> 00:04:31,370
Расслабься, все закончилось.

28
00:04:38,411 --> 00:04:39,924
Мы его взяли.


Трекер:  [ 15-Май-2018 19:01 ]

  

Скачать .torrent

Размер .torrent файла 15 KB


Размер: 1.47 GB
Хэш (hash) релиза: d9e6bf1cdc3868491825dc824f430fce63ba17a0
Подписка на обновления:

Еще никто не оставлял запись к записи скачать торрент Вирусность Viraali . Будь первым!

!Обратная связь